tomy100

Welcome To The Jungle (The Rundown) (2003) - BDRip -1080p - (DVD - DD+51) [Tamil + Telugu+ Hindi] - x264 - 4.8GB - DSubs

Posted (edited)

81tk7bn+TbL._AC_SL1500_.jpg

WE ARE NOW AVAILABLE ON NEW TELEGRAM - JOIN OUR GROUP

wBAI7HE.pngzc9Fc42.pnga1jcCDZ.pngWFoLPXG.pngOym7VIs.png4tQOX5G.png

 

 

 

 

 

Format : Matroska

File size : 4.89 GiB

Duration : 1 h 44 min

Overall bit rate : 6 718 kb/s

Movie name : The Rundown (2003) 1080p BDRip x264 [Multi Audio] (Org DVD DD 5.1 Hindi-Tamil-Telugu) 

Bit rate : 5 555 kb/s

Width : 1 920 pixels

Height : 816 pixels

Display aspect ratio : 2.35:1

Frame rate mode : Constant

Frame rate : 23.976 (24000/1001) FPS

Title : By~Hammer~

Language : English

Default : Yes

 

Audio #1

ID : 1

Format : AC-3

Format/Info : Audio Coding 3

Codec ID : A_AC3

Duration : 1 h 44 min

Bit rate mode : Constant

Bit rate : 384 kb/s

Channel(s) : 6 channels

Channel positions : Front: L C R, Side: L R, LFE

Sampling rate : 48.0 kHz

Frame rate : 31.250 FPS (1536 SPF)

Bit depth : 16 bits

Compression mode : Lossy

Stream size : 286 MiB (33%)

Title : Hindi Org DD 5.1 By~Hammer~

Language : Hindi

Default : Yes

 

Audio #2

ID : 2

Format : AC-3

Format/Info : Audio Coding 3

Codec ID : A_AC3

Duration : 1 h 44 min

Bit rate mode : Constant

Bit rate : 384 kb/s

Channel(s) : 6 channels

Channel positions : Front: L C R, Side: L R, LFE

Sampling rate : 48.0 kHz

Frame rate : 31.250 FPS (1536 SPF)

Bit depth : 16 bits

Compression mode : Lossy

Stream size : 286 MiB (33%)

Title : Tamil Org DD 5.1 By~Hammer~

Language : Tamil

Default : No

 

Audio #3

ID : 3

Format : AC-3

Format/Info : Audio Coding 3

Codec ID : A_AC3

Duration : 1 h 44 min

Bit rate mode : Constant

Bit rate : 384 kb/s

Channel(s) : 6 channels

Channel positions : Front: L C R, Side: L R, LFE

Sampling rate : 48.0 kHz

Frame rate : 31.250 FPS (1536 SPF)

Bit depth : 16 bits

Compression mode : Lossy

Stream size : 286 MiB (33%)

Title : Telugu Org DD 5.1 By~Hammer~

Language : Telugu

Default : No

 

Text #1

ID : 4

Format : PGS

Muxing mode : zlib

Codec ID : S_HDMV/PGS

Codec ID/Info : Picture based subtitle format used on BDs/HD-DVDs

Duration : 1 h 36 min

Bit rate : 13.2 kb/s

Count of elements : 2118

Stream size : 9.18 MiB (1%)

Title : Hindi PGS

Language : Hindi

Default : Yes

Forced : No

 

Text #2

ID : 5

Format : PGS

Muxing mode : zlib

Codec ID : S_HDMV/PGS

Codec ID/Info : Picture based subtitle format used on BDs/HD-DVDs

Duration : 1 h 36 min

Bit rate : 8 822 b/s

Count of elements : 2383

Stream size : 6.12 MiB (1%)

Title : PSDH

Language : English

Default : No

Forced : No

 

 

 

 

 

torrborder.gif.a36a064cf6ccdffab1019892c

google-drive.jpg

Welcome To The Jungle (The Rundown) (2003) - BDRip -1080p - (DVD - DD+51) [Tamil + Telugu+ Hindi] - DSubs :

Welcome To The Jungle (The Rundown) (2003) - BDRip -1080p - (DVD - DD+51) [Tamil + Telugu+ Hindi] - DSubs.mkv

 

 

Welcome To The Jungle (The Rundown) (2003) - (DVD - DD+51) [Tamil + Telugu+ Hindi] - Audios Only ( Mega Link ):

Welcome To The Jungle (The Rundown) (2003) - (DVD - DD+51) [Tamil + Telugu+ Hindi] - Audios Only

 

 

torrborder.gif.a36a064cf6ccdffab1019892c

 

Credits :- hammer 

 

Please Hit Like Button And Give A Comment 

 

 

Edited by tomy100
1 person likes this

Share this post


Link to post
Share on other sites

good share bro

Share this post


Link to post
Share on other sites

Create an account or sign in to comment

You need to be a member in order to leave a comment

Create an account

Sign up for a new account in our community. It's easy!


Register a new account

Sign in

Already have an account? Sign in here.


Sign In Now